Home > Error While > Ffmpeg Error While Opening Encoder For Output Stream

Ffmpeg Error While Opening Encoder For Output Stream


For example: When I used and the output encoding messages show me this and working well : [h624 @ 0x874e4a0] missing picture in access unit93 bitrate=1034.4kbits/s Last message repeated 1163 times5974kB BUT for some reason others fail. Log in or register to post comments Comment #8 heshanlk CreditAttribution: heshanlk commented May 5, 2011 at 1:33am Status: Active » Postponed (maintainer needs more info) Log in or register to He received a Master in Information Technology and Telecommunications Systems from Athens Information Technology and a B.Sc. this contact form

Make sure that the new image size can have the exact same aspect ratio! Adv Reply January 28th, 2012 #2 andrew.46 View Profile View Forum Posts Private Message Still having fun... ffmpeg -i "C:\video.avi" -c:v libx264 -preset slow -qp 0 -pass 2 -c:a mp3 -b:a 192k "C:\video.mp4" Output : ffmpeg version N-75550-g23acb98 Copyright (c) 2000-2015 the FFmpeg developers built with gcc 4.9.3 To did this I just cloned the "MPEG4 Lossless Extraction" preset, named it "MPEG4 Lossless Video Extraction_AAC audio". http://stackoverflow.com/questions/13877031/error-while-opening-encoder-for-output-stream-0-0-maybe-incorrect-parameters

Error While Opening Codec For Output Stream Winff

Also, when you get this message you can usually scroll up to see another error message that is more specific. bit rate, video codec, etc, and the file was successfully transcoded: ffmpeg -i "damaged_file.avi" -crf 35.0 -vcodec libx264 -acodec libfaac -ar 48000 -ab 128k -coder 1 -flags +loop -cmp +chroma -partitions Anyway, answer updated. –LordNeckbeard Oct 26 '15 at 18:22 Hmm..

ON EVERY conversion I get the error "Error while opening codec for output stream #0.1 - maybe incorrect parameters such as bit_rate, rate, width or height" I have tried to input Cheers, Antoine Log in or register to post comments Comment #10 jantoine CreditAttribution: jantoine commented June 22, 2011 at 8:55am Found out that my issues was a little different than the Converting - configuration: --enable-memalign-hack --enable-postproc --enable-gpl --enable-libfaac --enable-libfaad --enable-libgsm --enable-libmp3lame --enable-libvorbis --enable-libtheora --enable-libx264 --enable-libxvid --disable-ffserver --enable-avisynth --enable-pthreads Converting - libavutil 50. 3. 0 / 50. 3. 0 Converting - libavcodec 52.27. Mpeg1/2 Does Not Support 3/1 Fps Last edited by Drakx (2011-08-31 18:10:05) Offline #2 2011-08-31 12:59:57 satanselbow Member Registered: 2011-06-15 Posts: 534 Re: [SOLVED] Little help with FFMpeg You might find having an odd height x width

Then hit the Save button. Error While Opening Encoder For Output Stream Maybe Incorrect Parameters Playstation 3 (MP4 H.264; 29.97; 720x480; AAC)" will convert SOME Cam4 streams without any problems and you can watch the converted file on your TV using PS3 media server. Please respect the rights of the content owners when recording. Copyright Applian Technologies Inc. - All Rights Reserved vBulletin Metro Theme by PixelGoose Studio May the Source be with you FFMPEG reported the following output: FFmpeg version SVN-r25837, Copyright (c) 2000-2010 the FFmpeg developers built on Nov 28 2010 00:27:04 with gcc 4.1.2 20080704 (Red Hat 4.1.2-48) configuration: --enable-version3 --enable-libopencore-amrnb --enable-libopencore-amrwb

Below is output from a few ffmpeg commands. "ffmpeg -version": FFmpeg version SVN-r0.5.1-4:0.5.1-1ubuntu1.1, Copyright (c) 2000-2009 Fabrice Bellard, et al. Ffmpeg Bit_rate Extended support for Ubuntu 12 How do I answer why I want to join a smaller company given I have worked at larger ones? And what about "double-click"? Menelaos Bakopoulos is currently pursuing his PhD both at Center for TeleInFrastruktur (CTiF) at Aalborg University (AAU) in Denmark and Athens Information Technology (AIT) in Athens, Greece.

Error While Opening Encoder For Output Stream Maybe Incorrect Parameters

Also is need to use : -acodec copy -threads 12 If don't use this you will have one error. You can check the encode decode availability by inspecting the output array from PHPVideoToolkit::getFFmpegInfo(). Error While Opening Codec For Output Stream Winff Reason: fixed that problem now another problem Adv Reply January 29th, 2012 #4 FakeOutdoorsman View Profile View Forum Posts Private Message 5 Pints of Stout Join Date Sep 2006 Beans Error While Opening Encoder For Output Stream 0 0 Actually means 'same quantizers'!

I am using a full version of RMC4. weblink Join Date Dec 2010 Beans 47 Re: winff/ffmpeg problem Output #0, 3gp, to '/home/masterrob213/Final Fantasy VII Advent Children Movie.3gp': Stream #0.0: Video: libx264, yuv420p, 320x240, q=2-31, 128 kb/s, 90k tbn, 15 The problem is half solved! Thank you.Ok Arch Linux HomePackagesForumsWikiBugsAURDownload Index Rules Search Register Login You are not logged in. Width Not Divisible By 2

The recorded FLV files were using Nelly Moser audio codec (8000 Hz, mono), and after recomressing audio I was able to get an MP4 file: Reply With Quote 12-14-2010,07:13 PM #4 Somewhat Generalized Mean Value Theorem Does “hack” have meanings other than “rough cut, blow” and "act of computer hacking"? Infinite sum of logs puzzle Why contraction and weakening rules are the upside down? http://smartphpstatistics.com/error-while/error-while-opening-encoder-for-output-stream-maybe-incorrect-parameters.html What is a type system?

If you need technical support or customer service, please visit the links to the right. Ratecontrol_init: Can't Open Stats File Output #0, flv, to '/public_html/drupal/sites/default/files/tmp/1368955969-51989c41d7136.flv': Stream #0.0: Video: flv, yuv420p, 320x240, q=2-31, pass 2, 200 kb/s, 90k tbn, 30 tbc Stream #0.1: Audio: libfaac, 44100 Hz, 2 channels, s16, 64 kb/s share|improve this answer edited Dec 14 '12 at 18:23 LordNeckbeard 21.3k45872 answered Dec 14 '12 at 11:11 pogorskiy 3,1211120 it says unknown encoder libmp3lame –Pradeep Singh Dec 26 '12

To start viewing messages, select the forum that you want to visit from the selection below.

Join Date Dec 2010 Beans 47 Re: winff/ffmpeg problem convert to moble phone device preset 3GPP H.264 320x240 4:3 AAC stereo yes i am useing ubuntu lucid Adv Reply January Could not write header for output file #0 (incorrect codec parameters ?) I believe that "Video: flv, yuv420p, 480x400" can't be used in MP4 file, so the video needs to be Reply With Quote 02-03-2011,12:05 PM #5 blobalbob View Profile View Forum Posts Private Message Member Join Date Feb 2011 Posts 8 Rep Power 0 Re: Error while opening codec for output Libvo_aacenc Unable To Set Encoding Parameters in Computer Science & Management Information Systems from the American College of Thessaloniki.

What you requested "What I want is to re-encode the video that keep the original quality" You can't keep the "original quality" with a lossy encoder. Overwrite ? [y/N] w:624 h:352 pixfmt:yuv420p tb:1001/24000 fr:24000/1001 sar:1/1 sws_param:flags=2[graph 1 input from stream 0:1 @ 0364f860] tb:1/48000 samplefmt:s16 samplerate:48000 chlayout:0x60f[libx264 @ 036b01c0] using SAR=1/1[libx264 @ 036b01c0] using cpu capabilities: MMX2 Without more details on the preset that was being used and what was being converted, I couldnt even point them in the right direct except to do a google search on his comment is here It is also a work in progress - so bear with us as we improve the template and content.

Are independent variables really independent?