Home > Error While > Error While Decoding Stream Ffmpeg

Error While Decoding Stream Ffmpeg

Contents

Here is my script: #!/bin/bash # outdir=/data/sounds/output srcdir=/data/sounds # Cleanup first rm -f /data/sounds/output/* ls -1 ${srcdir}/*.ra | while read file do infile=$(basename $file) chapter=$(echo $infile | cut -f1 -d"-") verse=$(echo Here's his answer for you: " -f mpegts This solves largely the problem (see below). The old videos show no metadata information: JasonMillward added bug handbrake labels Nov 23, 2015 JasonMillward changed the title from Plex error: Error while decoding stream #0:1: Invalid data found when Actually, I knew that this is not proper place, however, after some short investigation I haven't found better place :-(. Check This Out

If you don't want users to report bugs, maybe disallow public registration and posting? This site is not affiliated with Linus Torvalds or The Open Group in any way. transport stream to h264 mpeg 4, ... There were changes to the flacdec code in FFmpeg in mid-April, so that could have made the decoding more verbose because the decoder can pick up on errors in the stream https://trac.ffmpeg.org/ticket/1622

Error While Decoding Stream

The flash player on ted doesn't seem to have a trouble with it, but I can't tell if that's because another quality is picked. Download in other formats: Comma-delimited Text Tab-delimited Text RSS Feed Powered by Trac 1.0.1 By Edgewall Software. Top jbalvarado Posts: 49 Joined: Thu Oct 03, 2013 3:47 pm Re: flac decoding errors Quote Postby jbalvarado » Fri May 09, 2014 3:23 pm Hello qyot27, thank you for your Fixed.

and the converted mp4 file is full of artifacts and sound problems. Search: LoginPreferencesHelp/GuideAbout TracRegister WikiTimelineView TicketsSearchTags Context Navigation +0← Previous TicketNext Ticket → Opened 4 years ago Closed 4 years ago Last modified 4 years ago #1622 closed enhancement (invalid) Is “error Error while decoding stream #0:0: Operation not permitted [h264 @ 0x27ef0c0] AVC: nal size 0 Last message repeated 1 times [h264 @ 0x27ef0c0] no frame! Ffmpeg Error While Decoding Stream Invalid Data Found When Processing Input Also, the frames around this timestamp have very low differences, so it's not surprising to have small data frames.

I'm being to implement TS support (opening and transcoding) in EnKoDeur-Mixeur and Jean-Daniel test with one of his videos. Multiplexing subtitles (buttons) into mpeg DVDAuthor::spumux, version 0.6.14. How to tell why macOS thinks that a certificate is revoked? Pictures    :       25    INFO: [???] No.

Browse other questions tagged bash ffmpeg or ask your own question. Ffmpeg Error While Decoding Stream #0:0: Invalid Data Found When Processing Input Overwrite ? [y/N] y Output #0, dvd, to 'test.mp4': Metadata: encoder : Lavf54.29.104 Stream #0:0: Video: mpeg2video, yuv420p, 720x576 [SAR 64:45 DAR 16:9], q=2-31, 6000 kb/s, 90k tbn, 25 tbc Stream size     0 bytes    INFO: [???] Average bit-rate :  1446400 bits/sec    INFO: [???] Peak bit-rate    :  1033200  bits/sec    INFO: [???] BUFFERING min 81656 Buf max 134306    INFO: [???] Top Display posts from previous: All posts1 day7 days2 weeks1 month3 months6 months1 year Sort by AuthorPost timeSubject AscendingDescending Post Reply Print view 7 posts • Page 1 of 1 Return

Io Error While Decoding

If it does still exist with the svn trunk or 4.9 branch, then it should be reported upstream (although whether 'reported upstream' means FFmpeg or GCC, I don't know; I'd guess read this post here Post Reply Print view Search Advanced search 7 posts • Page 1 of 1 jbalvarado Posts: 49 Joined: Thu Oct 03, 2013 3:47 pm flac decoding errors Quote Postby jbalvarado » Error While Decoding Stream What is the best way to upgrade gear in Diablo 3? Io Error While Decoding With Utf 8 Play Error while decoding stream #0:0: Operation not permitted [h264 @ 0x27ed920] AVC: nal size 0 Last message repeated 1 times [h264 @ 0x27ed920] no frame!

My encoding settings are exactly the same, yet Plex can no longer read the videos that are output by Handbrake. http://smartphpstatistics.com/error-while/ffmpeg-error-while-decoding-mb.html At least I was looking for that. The issue was closed because the problem it was addressing was fixed in GCC, but I don't know if this issue is related to it at all. Error while decoding stream #0:0: Operation not permitted [h264 @ 0x27f0a40] AVC: nal size 0 Last message repeated 1 times [h264 @ 0x27f0a40] no frame! Io Error While Decoding Main.scala With Utf-8

So I'm more inclined to think that there's something the matter with how the stream's metadata and headers are being written, and FFmpeg is simply being more verbose/strict about it than It's really puzzling me, I always seem to have problems when I try and script with ffmpeg! –Aditya K May 5 '15 at 15:03 add a comment| 1 Answer 1 active Terms Privacy Security Status Help You can't perform that action at this time. this contact form I never thought of searching for some forum in contact information (sorry!).

Download in other formats: Comma-delimited Text Tab-delimited Text RSS Feed Powered by Trac 1.0.1 By Edgewall Software. Create VOB files Fix Video-file: C:\Documents and Settings\Snuggoes.EXPERIENCE\My Documents\Azureus Downloads\F1.2008.Round04.Spain.Qual.Speed.MPEG-2.English.mpg Input #0, mpeg, from 'C:\Documents and Settings\Snuggoes.EXPERIENCE\My Documents\Azureus Downloads\F1.2008.Round04.Spain.Qual.Speed.MPEG-2.English.mpg':   Duration: 01:07:56.0, start: 0.168000, bitrate: 3779 kb/s   Stream #0.0[0x1e0]: Video: Certainly possible, but is the large header really supposed to be in the middle of the file?

Errors can come from lost frames (or buggy tv software).

This is the original video: http://glouk.legtux.org/divers/20121009_182802_%5b5%20France%205%5d_%5bC%20dans%20l%27air%5d.ts The converted mp4 video (with artefacts): http://glouk.legtux.org/divers/10_10_12_ts_to_h264_mpeg4_jean-daniel_video.mp4 Can we specify additional parameters for FFmpeg to these artifacts and sound problems do not appear? Reload to refresh your session. comment:4 Changed 4 years ago by cehoyos The following command line shows no visual deficiencies afaict: $ mplayer -nosound -demuxer asf -vc ffmss2 mss2_speech.wmv The following command line shows broken output, Possibly a combination of these scenarios.The flac.exe that I used to encode the test streams was 1.3.0, which I built on April 28th from FLAC's git repo.

It seems totem/gstreamer is able to, according to the user. (Before you answer: Note that afaict most frames in the sample only consist of "0" and "1" making decoding extra difficult share|improve this answer answered May 5 '15 at 15:29 Aditya K 519114 add a comment| Your Answer draft saved draft discarded Sign up or log in Sign up using Google Error while decoding stream #0:0: Operation not permitted [h264 @ 0x281a9e0] AVC: nal size 0 Last message repeated 1 times [h264 @ 0x281a9e0] no frame! navigate here Visit the Trac open source project athttp://trac.edgewall.org/ Home/News | About | Download | Documentation | Forum | Bug Reports | Contact | Donations | Consulting | Projects | Legal | Security

SourceForge Browse Enterprise Blog Deals Help Create Log In or Join Solution Centers Go Parallel Resources Newsletters Cloud Storage Providers Business VoIP Providers Call Center Providers Home Browse DVDStyler Discussion DVDStyler comment:6 Changed 3 years ago by cehoyos Keywords mov added Priority changed from normal to minor comment:7 follow-up: ↓ 8 Changed 3 years ago by cehoyos Summary changed from can't decode some Avidemux loads the file and convert it. Error while decoding stream #0:0: Invalid data found when processing input Last message repeated 7 times [h264 @ 0x3514360] Missing reference picture, default is 65570 [h264 @ 0x3514c40] Missing reference picture,

Download in other formats: Comma-delimited Text Tab-delimited Text RSS Feed Powered by Trac 1.0.1 By Edgewall Software. Going to be away for 4 months, should we turn off the refrigerator or leave it on with water inside? the link is from ​http://www.ted.com/talks/andrew_mcafee_what_will_future_jobs_look_like.html comment:4 Changed 3 years ago by cehoyos The question actually meant Clément who set the ticket to reproduced, but if you assume a broken file then The file is directly recdorded by a chinese cheap TV set (Belson), to the USB device.

Below is the log.  If I let it go all the way through I can burn it and it works, but the video is crap!  What changed? comment:26 Changed 5 months ago by cehoyos The original file that allows to reproduce the issue is in ​https://samples.ffmpeg.org/ffmpeg-bugs/trac/ticket2667/ comment:27 Changed 5 months ago by richardpl Than file is invalid and How would they learn astronomy, those who don't see the stars? comment:6 Changed 4 years ago by ami_stuff This patch improves demuxing of "GipsyGuitar?.wmv": ​http://article.gmane.org/gmane.comp.video.libav.devel/33525 ​http://samples.ffmpeg.org/V-codecs/MSS1/GipsyGuitar.wmv comment:7 Changed 3 years ago by cehoyos Resolution set to fixed Status changed from open to

Error while decoding stream #0:0: Operation not permitted [h264 @ 0x27edea0] AVC: nal size 0 Last message repeated 1 times [h264 @ 0x27edea0] no frame! We recommend upgrading to the latest Safari, Google Chrome, or Firefox. Go ahead and close this issue. RA files are named as chapter-verse.ra (e.g. 13-01.ra) I run a script and it gets as far as processing 32 files and then stops.

At first I was afraid I'd be petrified How should I interpret "English is poor" review when I used a language check service before submission? Is there a list of texts defining fatal errors? ### THE PROBLEM I am not able to precisely decide which error is fatal and should result in (for example) saying that Also with GCC 4.9.0, and as with virtually everything I ever build, cross-compiled under Linux.When actually listening to the .flac file in mpv (which was linked against that FFmpeg noted above), Not the answer you're looking for?

help please Messages sorted by: [ date ] [ thread ] [ subject ] [ author ] More information about the ffmpeg-user mailing list Search: LoginPreferencesHelp/GuideAbout TracRegister WikiTimelineView TicketsSearchTags Context Navigation The problem is that I want to transcode the TS file into h264 mpeg4, this command (taking into considers the specification of youtube): /home/toto/ekd_toto/linux_dependances_portables/ffmpeg/ffmpeg -f mpegts -i "/home/toto/blender/20121009_182802_[5 France 5]_[C dans AVC: nal size 0 nan fd= 2 aq= 46KB vq= 0KB sq= 0B f=0/0 [h264 @ 0xb4ca5940] AVC: nal size 0 [h264 @ 0xb4ca5940] no frame! [h264 @ 0xb4a1f7e0] AVC: nal